viewing videos on PS3 issues!!

Read the FAQ in here first then post your questions here if it doesn't help you.
Post Reply
jihong
Posts: 2
Joined: Feb 25th, '13, 02:42

viewing videos on PS3 issues!!

Post by jihong » Feb 25th, '13, 02:44

Hey folks,

I've been downloading the Running Man episodes from this site and for some reason, the .avi files downloaded are not recognized by my ps3, and when I try and convert the files using the divx converter, it doesn't recognize it either.

Any suggestions??

Thanks!

MoerkJ
Administrator
Administrator
Posts: 1322
Joined: Dec 6th, '03, 08:40
Location: Germany

Post by MoerkJ » Feb 25th, '13, 17:04

Maybe the file you downloaded isn't an .avi file, but something else (e.g. mp4, flv, etc.).

You can find out the file type and the used codec with file checkers like MediaInfo or GSpot.

Link: MediaInfo homepage
Link: GSpot homepage
..:: ( Clubbox | Wiki | FAQ | [url=irc://irc.rizon.net:6667/d-addicts]IRC[/url] ) ::..

jihong
Posts: 2
Joined: Feb 25th, '13, 02:42

Post by jihong » Feb 26th, '13, 01:16

it's def. avi.

how do I install codec on my ps3?

I have no problem watching the file on my computer, it only becomes an issue when I try and play it on my ps3.

User avatar
zorkaz
Posts: 144
Joined: Jul 14th, '10, 14:16

Post by zorkaz » Feb 26th, '13, 01:40

Maybe you should just download something like "Format Factory" and convert this .avi into an .avi.
Sounds silly, but it often helps...

Thjalfi
Posts: 14
Joined: Aug 5th, '12, 08:06
Location: Deutschland

Post by Thjalfi » Feb 26th, '13, 01:50

Hi, you are not giving us enough info about that file, so nobody knows what codec is in that .avi container like, H264 or divx or xvid or some crazy flash stuff.
The only tip I can give you is, get a up to date encoding program. I use XMedia Recode for trans/encoding, you only need to click on encode to PS3 and the prog will set everything up for you.

A good info should look like this:
General
Complete name : (GomTV Full HD) [MV].avi
Format : AVI
Format/Info : Audio Video Interleave
File size : 367 MiB
Duration : 5mn 0s
Overall bit rate : 10.3 Mbps
Writing application : GOM ENCODER (GAviWriter 1.0)

Video
ID : 0
Format : AVC
Format/Info : Advanced Video Codec
Format profile : Main L4.1
Format settings, CABAC : Yes
Format settings, ReFrames : 1 frame
Format settings, GOP : M=1, N=23
Codec ID : H264
Duration : 4mn 59s
Bit rate : 10 000 Kbps
Width : 1 920 pixels
Height : 1 080 pixels
Display aspect ratio : 16:9
Frame rate : 23.976 fps
Color space : YUV
Chroma subsampling : 4:2:0
Bit depth : 8 bits
Scan type : Progressive
Bits/(Pixel*Frame) : 0.201
Stream size : 355 MiB (97%)
Writing library : x264 core 1632855468Jun 7 2011
Encoding settings : cabac=1 / ref=1 / deblock=1:0:0 / analyse=0x1:0x111 / me=hex / subme=5 / psy_rd=0.0:0.0 / mixed_ref=0 / me_range=16 / chroma_me=1 / trellis=0 / 8x8dct=0 / cqm=0 / deadzone=21,11 / chroma_qp_offset=0 / threads=6 / nr=0 / decimate=1 / mbaff=0 / bframes=0 / keyint=23 / keyint_min=1 / scenecut=40 / rc=abr / bitrate=10000 / ratetol=1.0 / qcomp=0.50 / qpmin=10 / qpmax=40 / qpstep=4 / ip_ratio=1.40 / aq=1:1.00

Audio
ID : 1
Format : MPEG Audio
Format version : Version 1
Format profile : Layer 3
Mode : Joint stereo
Codec ID : 55
Codec ID/Hint : MP3
Duration : 5mn 0s
Bit rate mode : Constant
Bit rate : 320 Kbps
Channel(s) : 2 channels
Sampling rate : 48.0 KHz
Compression mode : Lossy
Stream size : 11.5 MiB (3%)
Alignment : Aligned on interleaves
Interleave, duration : 24 ms (0.57 video frame)
Interleave, preload duration : 240 ms
Writing library : LAME3.98.4

glhf :salut:

User avatar
riki_kun
Posts: 125
Joined: Mar 6th, '10, 16:25
Location: Italy

Post by riki_kun » Mar 6th, '13, 19:45

jihong wrote:it's def. avi.

how do I install codec on my ps3?

I have no problem watching the file on my computer, it only becomes an issue when I try and play it on my ps3.
youcan't install codecs on PS3 lol , the user who suggested it probably doesn't evenknow what a PS3 is , i can suggest you to download Xilisoft Video Converter , i use it to convert all videos to PS3 format and is the best converter around.

namihodai
Posts: 421
Joined: Sep 23rd, '10, 20:00
Location: Germany

Post by namihodai » Mar 6th, '13, 20:01

if your PS3 and your PC are connected to the same network, you can use this http://www.ps3mediaserver.org/ to stream the files to the PS3. They will be converted by the software. Might be the easiest way, if both devices are on the same network.
my name should have been nomihodai, but I either learned it wrong when I was in Japan or remembered it wrong when I chose my name for d-addicts :D

mydramalist

tseon
Posts: 57
Joined: Jun 24th, '12, 01:02
Location: Brazil

Post by tseon » Mar 6th, '13, 21:19

Or you can use "PS3 Media Server".

You install on your computer, then you execute it with the playstation on.

The icon of the media server will appear on your PS3 underneath the video tab and other tabs as well.

You click with the Xon the icon and you'll be able to access all your computer files through the media server, and you can open your videos with no problem, because the media server convert for your PS3 as you watch.

I used a lot, but now I prefer to record on a re-writable dvd again and again. ;P

oldriggerrs
Posts: 1
Joined: Jun 19th, '13, 14:41

Post by oldriggerrs » Jun 19th, '13, 14:47

If this method cant solve the issue, why not convert the avi file to a mp4 and put onto your PS3 to check if workable.
PS3 reads avi and mp4 file well.
I have no idea whether this software will work but worth giving it a try.
Source: how to convert avi to mp4 file
The utility has options to convert videos for PS3, so you dont need to set any parameters for output.

Post Reply

Who is online

Users browsing this forum: No registered users and 1 guest