Hotman Season 1 DVDrip - Batch 1 (Episode 1, 2 and 3)

archived comments
dorawan89
Posts: 33
Joined: Tue Jun 10, 2008 4:52 am

Hotman Season 1 DVDrip - Batch 1 (Episode 1, 2 and 3)

Postby dorawan89 » Sat Nov 15, 2014 2:26 am

Source: DVDrip
Subtitle: RAW


Hotman Season 1: Batch 1

Image

Cast: Takashi Sorimachi, Akiko Yada, Manami Konishi, Yui Ichikawa, Shota Saito, Keita Saito, and Nana Yamauchi.

Synopsis: Takashi Sorimachi plays a school art teacher Enzo Furiya (降矢円造) who takes care of his 5-year-old daughter Nanami Furiya of whom he has no idea who her mother is. He also lives with his four siblings whose fathers are all different. Enzo’s daughter suffers from severe atopic dermatitis, so he throws himself into managing her diet to alleviate her condition. He is so determined to raise the little daughter well, he doesn’t appear to have any spare time for a girlfriend. And yet Enzo finds himself drawn to Misuzu Kaneko (played by Akiko Yada), a health teacher at his school. Enzo pursues life passionately for his little girl and his family. This is a story about how desperately Enzo tries to hold his family together in spite of all the hardships.

You can find the subtitle here: http://www.d-addicts.com/forum/viewtopic.php?t=160110

You can find the other batch here:
- Batch 1: http://www.d-addicts.com/forum/viewtopic.php?t=160111
- Batch 2:
- Batch 3:

Note: Please keep seeding! I may not be able to seed for a long time, but I won't stop until there are enough seeders. If the torrent is dead, and you're stuck, PM directly to me.

Screenshot:
Image

Code: Select all

   Video Detail
      Format/Info : Advanced Video Codec
      Format profile : High@L4.0
      Format settings, CABAC : Yes
      Format settings, ReFrames : 5 frames
      Format settings, GOP : M=2, N=58
      Codec ID : V_MPEG4/ISO/AVC
      Duration : 46mn 56s
      Bit rate : 935 Kbps
      Width : 624 pixels
      Height : 480 pixels
      Display aspect ratio : 1.300
      Frame rate mode : Variable
      Frame rate : 29.970 fps
      Color space : YUV
      Chroma subsampling : 4:2:0
      Bit depth : 8 bits
      Scan type : Progressive
      Bits/(Pixel*Frame) : 0.104
      Stream size : 314 MiB (93%)
      Writing library : x264 core 130 r2273 b3065e6
      Encoding settings : cabac=1 / ref=5 / deblock=1:-1:-1 / analyse=0x3:0x113 / me=umh / subme=8 / psy=1 / psy_rd=1.00:0.15 / mixed_ref=1 / me_range=16 / chroma_me=1 / trellis=1 / 8x8dct=1 / cqm=0 / deadzone=21,11 / fast_pskip=1 / chroma_qp_offset=-3 / threads=1 / lookahead_threads=1 / sliced_threads=0 / nr=0 / decimate=1 / interlaced=0 / bluray_compat=0 / constrained_intra=0 / bframes=3 / b_pyramid=2 / b_adapt=2 / b_bias=0 / direct=3 / weightb=1 / open_gop=0 / weightp=2 / keyint=300 / keyint_min=30 / scenecut=40 / intra_refresh=0 / rc_lookahead=50 / rc=crf / mbtree=1 / crf=22.8 / qcomp=0.60 / qpmin=0 / qpmax=69 / qpstep=4 / vbv_maxrate=25000 / vbv_bufsize=31250 / crf_max=0.0 / nal_hrd=none / ip_ratio=1.40 / aq=1:1.00
      Language : English
      Color primaries : BT.470-6 System B, BT.470-6 System G, BT.601-6 625, BT.1358 625, BT.1700 625 PAL, BT.1700 625 SECAM
      Transfer characteristics : BT.709-5, BT.1361
      Matrix coefficients : BT.601-6 525, BT.1358 525, BT.1700 NTSC, SMPTE 170M
   Audio Detail
      Format : Vorbis
      Format settings, Floor : 1
      Codec ID : A_VORBIS
      Duration : 46mn 56s
      Bit rate : 48.0 Kbps
      Channel(s) : 1 channel
      Sampling rate : 48.0 KHz
      Compression mode : Lossy
      Stream size : 16.1 MiB (5%)
      Writing library : aoTuV 20110424 (UTC 2011-04-24)
      Language : Japanese
Last edited by dorawan89 on Tue Nov 18, 2014 10:32 am, edited 7 times in total.

Ngon1
Posts: 153
Joined: Thu Aug 02, 2012 4:37 am

Postby Ngon1 » Sat Nov 15, 2014 6:53 am

Thank you very much.

dorawan89
Posts: 33
Joined: Tue Jun 10, 2008 4:52 am

Postby dorawan89 » Sat Nov 15, 2014 7:15 am

I will start seeding at 10pm (gmt +8 ). Keep your torrent open by that time.

User avatar
tresnadi
Posts: 104
Joined: Tue Dec 01, 2009 7:53 pm
Location: Kaze no Oka HOME

Postby tresnadi » Sat Nov 15, 2014 7:48 am

thank you for this dvdrip and the sub too..look forward to next batch :)

dorawan89
Posts: 33
Joined: Tue Jun 10, 2008 4:52 am

Postby dorawan89 » Sat Nov 15, 2014 1:04 pm

Hey I'm back! start seeding already. come on, all! and remember, keep seeding this batch as I'm gonna work with the second batch.

poonk
Posts: 451
Joined: Wed Mar 28, 2007 12:12 am
Location: Wisconsin, USA
Contact:

Postby poonk » Sat Nov 15, 2014 3:41 pm

Thank you dorawan89!

User avatar
Keiko1981
Global Moderator
Global Moderator
Posts: 7743
Joined: Sun Apr 09, 2006 11:27 am
Location: Sweden
Contact:

Postby Keiko1981 » Sun Nov 16, 2014 3:05 am

Thank you very much dorawan89! :)
Gifted Ones | Twitter | UL @ Nyaa | MyDramaList.com
Subbing: Final Cut, Inochi, Oshin, Seoul 1945
Where to find dramas & subtitles

User avatar
cirmos
Posts: 933
Joined: Thu Dec 15, 2011 7:17 am

Postby cirmos » Tue Nov 18, 2014 10:10 am

Thank you.

User avatar
LiviuBoss
Posts: 6
Joined: Wed Feb 24, 2010 6:50 am
Location: Focsani, Romania

Postby LiviuBoss » Tue Nov 18, 2014 12:36 pm

...the best series!!!! GREATS.... :-)

dorawan89
Posts: 33
Joined: Tue Jun 10, 2008 4:52 am

Postby dorawan89 » Wed Nov 19, 2014 3:21 pm

Announcement!

Just in case if the rumour of torrent section in D-addict closing down is true, I will be posting the last batch, altogether with batch 1 and 2 at [spoiler]Nyaa or TokyoToshokan[/spoiler] If the torrent section still here by the time I finished the last batch, I'll post it here.

It should be ready by the end of this week!

User avatar
cirmos
Posts: 933
Joined: Thu Dec 15, 2011 7:17 am

Postby cirmos » Thu Nov 20, 2014 7:42 am

dorawan89 wrote:Announcement!

Just in case if the rumour of torrent section in D-addict closing down is true, I will be posting the last batch, altogether with batch 1 and 2 at [spoiler]Nyaa or TokyoToshokan[/spoiler] If the torrent section still here by the time I finished the last batch, I'll post it here.

It should be ready by the end of this week!


Dear dorawan89,
As I have seen, the mentioned sites deal with anime only.

dorawan89
Posts: 33
Joined: Tue Jun 10, 2008 4:52 am

Postby dorawan89 » Thu Nov 20, 2014 7:55 am

cirmos wrote:
Dear dorawan89,
As I have seen, the mentioned sites deal with anime only.


actually, i saw live-action in there. no worry, i'll try first. if i'm using different site, i'll post it here. just be sure to check sometimes at the end of this week


Return to “Archived Comments”

Who is online

Users browsing this forum: Google [Bot] and 7 guests