Higanbana (848x480 x264)

archived comments
h1pp0
Posts: 195
Joined: Tue Feb 15, 2005 3:05 am

Higanbana (848x480 x264)

Postby h1pp0 » Thu Nov 06, 2014 3:53 pm

Image

Title: ヒガンバナ
Title (romaji): higanbana
Tagline: ~女たちの犯罪ファイル
Tagline (romaji): Onnatachi no hanzai fairu
Genre: Crime
Format: Tanpatsu
Broadcast Network: NTV
Broadcast Period: 2014-Oct-24
Airtime: Friday 21:00
Theme song:
Synopsis
NONE


Cast
Horikita Maki as Kurumiya Nagisa
Dan Rei as Minegishi Yukino
Chi Ei (知英) as Osami Kaoruko
Takanashi Nozomu (高梨臨) as Ito Rin
YOU as Yanagi Sachiko
Takahashi Keiko
Ichikawa Tomohiro
Kimoto Takehiro (木本 武宏)
Azuma Mikihisa
Sano Shiro
Takaoka Saki
Ishino Yoko
Kokusho Sayuri
Sugimoto Tetta
Daichi Mao
Production Credits

Chief Producer: Ito Hibiki (伊藤響)
Producer: sakashita tetsuya (坂下哲也), Onoue Takahiro (尾上貴洋), Yuasa Noriko (湯浅典子)
Director: Otani Taro
Screenwriter: Sawa Tomoko (澤智子)

Official Site

Video Codec Information

[spoiler]
General
Complete name : Higanbana (848x480 x264).mp4
Format : MPEG-4
Format profile : Base Media
Codec ID : isom
File size : 545 MiB
Duration : 1h 33mn
Overall bit rate mode : Variable
Overall bit rate : 817 Kbps
Encoded date : UTC 2014-10-25 06:58:52
Tagged date : UTC 2014-10-25 06:58:52

Video
ID : 1
Format : AVC
Format/Info : Advanced Video Codec
Format profile : High@L4.1
Format settings, CABAC : Yes
Format settings, ReFrames : 4 frames
Codec ID : avc1
Codec ID/Info : Advanced Video Coding
Duration : 1h 33mn
Bit rate : 684 Kbps
Maximum bit rate : 3 777 Kbps
Width : 848 pixels
Height : 480 pixels
Display aspect ratio : 16:9
Frame rate mode : Constant
Frame rate : 29.970 fps
Color space : YUV
Chroma subsampling : 4:2:0
Bit depth : 8 bits
Scan type : Progressive
Bits/(Pixel*Frame) : 0.056
Stream size : 457 MiB (84%)
Writing library : x264 core 142 r2431 ac76440
Encoding settings : cabac=1 / ref=3 / deblock=1:0:0 / analyse=0x3:0x113 / me=hex / subme=7 / psy=1 / psy_rd=1.00:0.00 / mixed_ref=1 / me_range=16 / chroma_me=1 / trellis=1 / 8x8dct=1 / cqm=0 / deadzone=21,11 / fast_pskip=1 / chroma_qp_offset=-2 / threads=12 / lookahead_threads=2 / sliced_threads=0 / nr=0 / decimate=1 / interlaced=0 / bluray_compat=0 / constrained_intra=0 / bframes=3 / b_pyramid=2 / b_adapt=1 / b_bias=0 / direct=1 / weightb=1 / open_gop=0 / weightp=2 / keyint=300 / keyint_min=29 / scenecut=40 / intra_refresh=0 / rc_lookahead=40 / rc=crf / mbtree=1 / crf=22.0 / qcomp=0.60 / qpmin=0 / qpmax=69 / qpstep=4 / ip_ratio=1.40 / aq=1:1.00
Encoded date : UTC 2014-10-25 06:58:52
Tagged date : UTC 2014-10-25 06:59:42

Audio
ID : 2
Format : AAC
Format/Info : Advanced Audio Codec
Format profile : LC
Codec ID : 40
Duration : 1h 33mn
Bit rate mode : Variable
Bit rate : 128 Kbps
Maximum bit rate : 135 Kbps
Channel(s) : 2 channels
Channel positions : Front: L R
Sampling rate : 48.0 KHz
Compression mode : Lossy
Stream size : 85.4 MiB (16%)
Encoded date : UTC 2014-10-25 06:16:30
Tagged date : UTC 2014-10-25 06:59:42


[/spoiler]
Checksums
md5: 02af0c32d1f54c35de05de8914c34ab7
sha1: 2eaed5ec357194e1f66ac49f1d4aa2e3c3cab045
crc32: 85C958B4

keioki
Posts: 59
Joined: Sat May 23, 2009 8:19 am

Postby keioki » Thu Nov 06, 2014 5:30 pm

Many thanks

User avatar
rootabega
Posts: 535
Joined: Tue Dec 07, 2010 6:29 pm

Postby rootabega » Mon Nov 10, 2014 5:08 am

Oops, wrong thread.


Who is online

Users browsing this forum: No registered users and 1 guest