Before After - #269-20141102.mp4

archived comments
User avatar
\( -o _ o- )/
Upload Addict
Upload Addict
Posts: 6238
Joined: Sun Jun 19, 2011 5:37 am
Location: (--<@>_<@>--) (--<Ö>__<Ö>--)

Before After - #269-20141102.mp4

Postby \( -o _ o- )/ » Tue Nov 04, 2014 10:22 pm

Attachments
Before After - #269-20141102 Snapshot.jpg
Before After - #269-20141102 Snapshot.jpg (310.7 KiB) Viewed 2110 times
v ( ^ o ^ ) vImagev ( - _ - ) vImage\"( - ___ - )"/Image

User avatar
am00339
Posts: 1841
Joined: Sun Dec 07, 2008 3:07 pm
Location: New York

Postby am00339 » Wed Nov 05, 2014 1:09 am

Thank you ! v ( ^ o ^ ) vv ( - _ - ) v\"( - ___ - )"/ san

Zn
Posts: 45
Joined: Wed Apr 21, 2010 6:42 pm

Thank you !

Postby Zn » Wed Nov 05, 2014 2:55 am

Thank you so much !
:clap: :heart:

silentnight
Posts: 20
Joined: Thu Dec 29, 2011 11:11 am
Location: Cairns, Australia

Postby silentnight » Wed Nov 05, 2014 5:27 am

thank you

Pelle
Posts: 179
Joined: Sun Jun 06, 2004 8:52 pm
Location: Colorado

Postby Pelle » Wed Nov 05, 2014 7:09 am

Thanks! Love this show.

kiromba
Posts: 20
Joined: Fri Dec 26, 2008 5:28 pm

Postby kiromba » Wed Nov 05, 2014 1:23 pm

Thank you, \( -o _ o- )/ !!!

h1pp0
Posts: 195
Joined: Tue Feb 15, 2005 3:05 am

Video Codec Information and Checksums

Postby h1pp0 » Wed Nov 05, 2014 4:24 pm

Video Codec Information

[spoiler]
General
Complete name : 대개조 극적 비포애프터- #269-20141102 손님이 우선인 집.mp4
Format : MPEG-4
Format profile : Base Media / Version 2
Codec ID : mp42
File size : 2.43 GiB
Duration : 1h 37mn
Overall bit rate mode : Variable
Overall bit rate : 3 554 Kbps

Video
ID : 1
Format : AVC
Format/Info : Advanced Video Codec
Format profile : High@L4.1
Format settings, CABAC : Yes
Format settings, ReFrames : 4 frames
Codec ID : avc1
Codec ID/Info : Advanced Video Coding
Duration : 1h 37mn
Source duration : 1h 37mn
Bit rate : 3 418 Kbps
Width : 1 280 pixels
Height : 720 pixels
Display aspect ratio : 16:9
Frame rate mode : Constant
Frame rate : 29.970 fps
Standard : Component
Color space : YUV
Chroma subsampling : 4:2:0
Bit depth : 8 bits
Scan type : Progressive
Bits/(Pixel*Frame) : 0.124
Stream size : 2.34 GiB (96%)
Source stream size : 2.34 GiB (96%)
Color primaries : BT.709
Transfer characteristics : BT.709
Matrix coefficients : BT.709

Audio
ID : 2
Format : AAC
Format/Info : Advanced Audio Codec
Format profile : LC
Codec ID : 40
Duration : 1h 37mn
Bit rate mode : Variable
Bit rate : 132 Kbps
Maximum bit rate : 576 Kbps
Channel(s) : 2 channels
Channel positions : Front: L R
Sampling rate : 48.0 KHz
Compression mode : Lossy
Stream size : 92.1 MiB (4%)

Menu
ID : 3
Codec ID : tx3g
Duration : 1h 37mn
Language : English
Bit rate mode : CBR
Source duration : 5877419
Source frame count : 8
Source stream size : 16
Frame count : 8
Stream size : 16


[/spoiler]
Checksums
md5: 25a5c5ef398229424c891b10949c0358
sha1: 9c26a452063a098f9443a7980d2ad38d0e4fc40f
crc32: 04FEA9EE

pato
Posts: 139
Joined: Tue Jul 24, 2012 10:50 pm

Re: Before After - #269-20141102.mp4

Postby pato » Sun Nov 16, 2014 2:15 pm


HUGE THANK YOU!
I love that TV show!


Who is online

Users browsing this forum: Bing [Bot] and 2 guests