Ai Nante Irane Yo,Natsu.DVDrip.x264.AC3-YYeTs Complete Batch

archived comments
User avatar
\( -o _ o- )/
Upload Addict
Upload Addict
Posts: 6239
Joined: Sun Jun 19, 2011 5:37 am
Location: (--<@>_<@>--) (--<Ö>__<Ö>--)

Ai Nante Irane Yo,Natsu.DVDrip.x264.AC3-YYeTs Complete Batch

Postby \( -o _ o- )/ » Sat Oct 04, 2014 11:54 pm

Image
Title: 愛なんていらねえよ、夏
Title (romaji): Ai Nante Irane Yo, Natsu
Also known as: I don't need love / I cannot say I love you
Format: Renzoku
Episodes: 10
Genre: Human drama
Viewership ratings: 07.8
Broadcast network: TBS
Broadcast period: 2002-Jul-12 to 2002-Sep-13
Air time: Friday 22:00
Theme song: Life by Ikeda Ayako


Synopsis
Hirosue Ryoko plays a pouty, blind girl with a chip on her shoulder (chips and grudges are in this quarter), whose very wealthy father has just died and left her his estate. Her mother left him years ago, taking her older brother, but leaving her behind. The sweet, but none-too-sharp brother, Reiji, writes her for years but the housekeeper throws the letters away. Now it turns out that this sweet Reiji (let's call him Reiji I), has gone to work as a cook for another guy named Reiji (Reiji II played by Watabe Atsuro), the cold-hearted head of a very successful Kabukicho host club. The girls all love him, but all he loves is his bankbook. Reiji II's life goes well until one day a rich executive's wife, who has been providing him with millions, turns out to be a poor bank clerk who has embezzled all the cash from her employer. Reiji II did not know this, but the police do not believe him and he heads off to serve six months as an accessory to the crime. The distraught, sweet Reiji I steps into the street to protest as Reiji II is driven off to jail, gets hit by a motorcycle and dies.
Six months later, Reiji II returns to find that the world of Kabukicho has turned against him and, during his incarceration, he has somehow run up a huge debt to the district's worst loan shark. As he prepares to be eaten alive by the nasty loan sharks, a private detective shows up looking for Reiji I, so he can reunite him with his long-lost sister. Somebody gets Reiji I and II confused, but Reiji II does a quick take on the situation. Seeing this as his only hope of swimming out of shark-infested waters, he takes it. He steals the identity of the other Reiji and heads off for a reunion with his newfound "sister." Bitter and angry about something as yet undisclosed, she is in no mood to be won over and slashes him on the cheek with her white cane. End of episode one. And yes, that was the best offering of the week.
Wm Penn, Excerpt from Daily Yomiuri 2002-Jul-18


Image


DramaWiki


Jdorama.com


Image


Enjoy :cheers:
v ( ^ o ^ ) vImagev ( - _ - ) vImage\"( - ___ - )"/Image

User avatar
zenith777
Posts: 803
Joined: Thu Oct 29, 2009 6:51 am
Location: Shitsuren no Sekai~

Postby zenith777 » Tue Oct 07, 2014 6:04 pm

Arigatou \( -o _ o- )/ :salut: :cheers:, it's Ryoko-chan dorama :wub:

h1pp0
Posts: 195
Joined: Tue Feb 15, 2005 3:05 am

Postby h1pp0 » Thu Oct 16, 2014 1:02 am

Codec Information

[spoiler]
General
Unique ID : 174599004330069405449329283791584730337 (0x835A8B89B43F8ACDB8EA987D62379CE1)
Complete name : Ai.Nante.Irane.Yo,Natsu.E01.DVDrip.x264.AC3-YYeTs.mkv
Format : Matroska
Format version : Version 2
File size : 349 MiB
Duration : 46mn 23s
Overall bit rate : 1 053 Kbps
Encoded date : UTC 2012-11-22 21:43:18
Writing application : mkvmerge v4.8.0 ('I Got The...') 编译于 May 24 2011 03:12:58
Writing library : libebml v1.2.0 + libmatroska v1.1.0

Video
ID : 1
Format : AVC
Format/Info : Advanced Video Codec
Format profile : High@L4.1
Format settings, CABAC : Yes
Format settings, ReFrames : 5 frames
Codec ID : V_MPEG4/ISO/AVC
Duration : 46mn 23s
Bit rate : 859 Kbps
Width : 704 pixels
Height : 528 pixels
Display aspect ratio : 4:3
Frame rate mode : Constant
Frame rate : 29.970 fps
Color space : YUV
Chroma subsampling : 4:2:0
Bit depth : 8 bits
Scan type : Progressive
Bits/(Pixel*Frame) : 0.077
Stream size : 279 MiB (80%)
Writing library : x264 core 125 r2208 d9d2288
Encoding settings : cabac=1 / ref=5 / deblock=1:-3:-3 / analyse=0x3:0x113 / me=umh / subme=10 / psy=1 / psy_rd=1.00:0.00 / mixed_ref=1 / me_range=48 / chroma_me=1 / trellis=2 / 8x8dct
=1 / cqm=0 / deadzone=21,11 / fast_pskip=0 / chroma_qp_offset=-1 / threads=12 / lookahead_threads=2 / sliced_threads=0 / nr=0 / decimate=1 / interlaced=0 / bluray_compat=0 / constrained_intra=0 / bframes=6
/ b_pyramid=2 / b_adapt=2 / b_bias=0 / direct=3 / weightb=1 / open_gop=0 / weightp=2 / keyint=250 / keyint_min=25 / scenecut=40 / intra_refresh=0 / rc_lookahead=50 / rc=2pass / mbtree=0 / bitrate=859 / rate
tol=2.0 / qcomp=0.70 / qpmin=0 / qpmax=69 / qpstep=4 / cplxblur=20.0 / qblur=0.5 / vbv_maxrate=10000 / vbv_bufsize=10000 / nal_hrd=none / ip_ratio=1.40 / pb_ratio=1.30 / aq=1:1.00
Language : English
Default : Yes
Forced : No

Audio
ID : 2
Format : AC-3
Format/Info : Audio Coding 3
Mode extension : CM (complete main)
Format settings, Endianness : Big
Codec ID : A_AC3
Duration : 46mn 23s
Bit rate mode : Constant
Bit rate : 192 Kbps
Channel(s) : 2 channels
Channel positions : Front: L R
Sampling rate : 48.0 KHz
Bit depth : 16 bits
Compression mode : Lossy
Stream size : 63.7 MiB (18%)
Default : Yes
Forced : No

Checksums
md5: 6338147cbe38e3b2677384ac8381f66e
sha1: 50218a10391f81ec6eae25a0a41eca6fdd73decf
crc32: 644CA8E0

Ai.Nante.Irane.Yo,Natsu.E02.DVDrip.x264.AC3-YYeTs.mkv Codec Information

[spoiler]
General
Unique ID : 194475709507780947465075876175352423576 (0x924EA8C3EED2E98EBB36FC5B994FE498)
Complete name : Ai.Nante.Irane.Yo,Natsu.E02.DVDrip.x264.AC3-YYeTs.mkv
Format : Matroska
Format version : Version 2
File size : 350 MiB
Duration : 44mn 47s
Overall bit rate : 1 092 Kbps
Encoded date : UTC 2012-11-22 21:44:03
Writing application : mkvmerge v4.8.0 ('I Got The...') 编译于 May 24 2011 03:12:58
Writing library : libebml v1.2.0 + libmatroska v1.1.0

Video
ID : 1
Format : AVC
Format/Info : Advanced Video Codec
Format profile : High@L4.1
Format settings, CABAC : Yes
Format settings, ReFrames : 5 frames
Codec ID : V_MPEG4/ISO/AVC
Duration : 44mn 47s
Bit rate : 897 Kbps
Width : 704 pixels
Height : 528 pixels
Display aspect ratio : 4:3
Frame rate mode : Constant
Frame rate : 29.970 fps
Color space : YUV
Chroma subsampling : 4:2:0
Bit depth : 8 bits
Scan type : Progressive
Bits/(Pixel*Frame) : 0.081
Stream size : 281 MiB (80%)
Writing library : x264 core 125 r2208 d9d2288
Encoding settings : cabac=1 / ref=5 / deblock=1:-3:-3 / analyse=0x3:0x113 / me=umh / subme=10 / psy=1 / psy_rd=1.00:0.00 / mixed_ref=1 / me_range=48 / chroma_me=1 / trellis=2 / 8x8dct
=1 / cqm=0 / deadzone=21,11 / fast_pskip=0 / chroma_qp_offset=-1 / threads=12 / lookahead_threads=2 / sliced_threads=0 / nr=0 / decimate=1 / interlaced=0 / bluray_compat=0 / constrained_intra=0 / bframes=6
/ b_pyramid=2 / b_adapt=2 / b_bias=0 / direct=3 / weightb=1 / open_gop=0 / weightp=2 / keyint=250 / keyint_min=25 / scenecut=40 / intra_refresh=0 / rc_lookahead=50 / rc=2pass / mbtree=0 / bitrate=897 / rate
tol=2.0 / qcomp=0.70 / qpmin=0 / qpmax=69 / qpstep=4 / cplxblur=20.0 / qblur=0.5 / vbv_maxrate=10000 / vbv_bufsize=10000 / nal_hrd=none / ip_ratio=1.40 / pb_ratio=1.30 / aq=1:1.00
Language : English
Default : Yes
Forced : No

Audio
ID : 2
Format : AC-3
Format/Info : Audio Coding 3
Mode extension : CM (complete main)
Format settings, Endianness : Big
Codec ID : A_AC3
Duration : 44mn 47s
Bit rate mode : Constant
Bit rate : 192 Kbps
Channel(s) : 2 channels
Channel positions : Front: L R
Sampling rate : 48.0 KHz
Bit depth : 16 bits
Compression mode : Lossy
Stream size : 61.5 MiB (18%)
Default : Yes
Forced : No


Checksums
md5: a2a3bfe1140c23273ab53db7e5804a1c
sha1: edd68eb8600873a0587ba8e458707fa4ae58b3b1
crc32: E5D35594

Ai.Nante.Irane.Yo,Natsu.E03.DVDrip.x264.AC3-YYeTs.mkv Codec Information

[spoiler]
General
Unique ID : 213937234894030354801780120898576154259 (0xA0F2D00C76B8FEE084B0602318A17E93)
Complete name : Ai.Nante.Irane.Yo,Natsu.E03.DVDrip.x264.AC3-YYeTs.mkv
Format : Matroska
Format version : Version 2
File size : 349 MiB
Duration : 46mn 20s
Overall bit rate : 1 054 Kbps
Encoded date : UTC 2012-11-22 21:45:08
Writing application : mkvmerge v4.8.0 ('I Got The...') 编译于 May 24 2011 03:12:58
Writing library : libebml v1.2.0 + libmatroska v1.1.0

Video
ID : 1
Format : AVC
Format/Info : Advanced Video Codec
Format profile : High@L4.1
Format settings, CABAC : Yes
Format settings, ReFrames : 5 frames
Codec ID : V_MPEG4/ISO/AVC
Duration : 46mn 20s
Bit rate : 861 Kbps
Width : 704 pixels
Height : 528 pixels
Display aspect ratio : 4:3
Frame rate mode : Constant
Frame rate : 29.970 fps
Color space : YUV
Chroma subsampling : 4:2:0
Bit depth : 8 bits
Scan type : Progressive
Bits/(Pixel*Frame) : 0.077
Stream size : 279 MiB (80%)
Writing library : x264 core 125 r2208 d9d2288
Encoding settings : cabac=1 / ref=5 / deblock=1:-3:-3 / analyse=0x3:0x113 / me=umh / subme=10 / psy=1 / psy_rd=1.00:0.00 / mixed_ref=1 / me_range=48 / chroma_me=1 / trellis=2 / 8x8dct
=1 / cqm=0 / deadzone=21,11 / fast_pskip=0 / chroma_qp_offset=-1 / threads=12 / lookahead_threads=2 / sliced_threads=0 / nr=0 / decimate=1 / interlaced=0 / bluray_compat=0 / constrained_intra=0 / bframes=6
/ b_pyramid=2 / b_adapt=2 / b_bias=0 / direct=3 / weightb=1 / open_gop=0 / weightp=2 / keyint=250 / keyint_min=25 / scenecut=40 / intra_refresh=0 / rc_lookahead=50 / rc=2pass / mbtree=0 / bitrate=861 / rate
tol=2.0 / qcomp=0.70 / qpmin=0 / qpmax=69 / qpstep=4 / cplxblur=20.0 / qblur=0.5 / vbv_maxrate=10000 / vbv_bufsize=10000 / nal_hrd=none / ip_ratio=1.40 / pb_ratio=1.30 / aq=1:1.00
Language : English
Default : Yes
Forced : No

Audio
ID : 2
Format : AC-3
Format/Info : Audio Coding 3
Mode extension : CM (complete main)
Format settings, Endianness : Big
Codec ID : A_AC3
Duration : 46mn 20s
Bit rate mode : Constant
Bit rate : 192 Kbps
Channel(s) : 2 channels
Channel positions : Front: L R
Sampling rate : 48.0 KHz
Bit depth : 16 bits
Compression mode : Lossy
Stream size : 63.6 MiB (18%)
Default : Yes
Forced : No

Checksums
md5: 2ffee7601a7cc5490292b61759972932
sha1: a97bfa81faf91520d968274af6cc80344ffd4dc3
crc32: F8A2DCC5

Ai.Nante.Irane.Yo,Natsu.E04.DVDrip.x264.AC3-YYeTs.mkv Codec Information

[spoiler]
General
Unique ID : 177848119938958749166052994108749990915 (0x85CC4D4E30C03BA7B97E0DC5A6334C03)
Complete name : Ai.Nante.Irane.Yo,Natsu.E04.DVDrip.x264.AC3-YYeTs.mkv
Format : Matroska
Format version : Version 2
File size : 349 MiB
Duration : 45mn 15s
Overall bit rate : 1 079 Kbps
Encoded date : UTC 2012-11-22 21:45:49
Writing application : mkvmerge v4.8.0 ('I Got The...') 编译于 May 24 2011 03:12:58
Writing library : libebml v1.2.0 + libmatroska v1.1.0

Video
ID : 1
Format : AVC
Format/Info : Advanced Video Codec
Format profile : High@L4.1
Format settings, CABAC : Yes
Format settings, ReFrames : 5 frames
Codec ID : V_MPEG4/ISO/AVC
Duration : 45mn 15s
Bit rate : 886 Kbps
Width : 704 pixels
Height : 528 pixels
Display aspect ratio : 4:3
Frame rate mode : Constant
Frame rate : 29.970 fps
Color space : YUV
Chroma subsampling : 4:2:0
Bit depth : 8 bits
Scan type : Progressive
Bits/(Pixel*Frame) : 0.080
Stream size : 280 MiB (80%)
Writing library : x264 core 125 r2208 d9d2288
Encoding settings : cabac=1 / ref=5 / deblock=1:-3:-3 / analyse=0x3:0x113 / me=umh / subme=10 / psy=1 / psy_rd=1.00:0.00 / mixed_ref=1 / me_range=48 / chroma_me=1 / trellis=2 / 8x8dct
=1 / cqm=0 / deadzone=21,11 / fast_pskip=0 / chroma_qp_offset=-1 / threads=12 / lookahead_threads=2 / sliced_threads=0 / nr=0 / decimate=1 / interlaced=0 / bluray_compat=0 / constrained_intra=0 / bframes=6
/ b_pyramid=2 / b_adapt=2 / b_bias=0 / direct=3 / weightb=1 / open_gop=0 / weightp=2 / keyint=250 / keyint_min=25 / scenecut=40 / intra_refresh=0 / rc_lookahead=50 / rc=2pass / mbtree=0 / bitrate=886 / rate
tol=2.0 / qcomp=0.70 / qpmin=0 / qpmax=69 / qpstep=4 / cplxblur=20.0 / qblur=0.5 / vbv_maxrate=10000 / vbv_bufsize=10000 / nal_hrd=none / ip_ratio=1.40 / pb_ratio=1.30 / aq=1:1.00
Language : English
Default : Yes
Forced : No

Audio
ID : 2
Format : AC-3
Format/Info : Audio Coding 3
Mode extension : CM (complete main)
Format settings, Endianness : Big
Codec ID : A_AC3
Duration : 45mn 15s
Bit rate mode : Constant
Bit rate : 192 Kbps
Channel(s) : 2 channels
Channel positions : Front: L R
Sampling rate : 48.0 KHz
Bit depth : 16 bits
Compression mode : Lossy
Stream size : 62.1 MiB (18%)
Default : Yes
Forced : No

Checksums
md5: c43b191411c3f90841c031be36af7be2
sha1: d4a474c5485395c95dbd939597a61665a8a88df9
crc32: E76DA081

Ai.Nante.Irane.Yo,Natsu.E05.DVDrip.x264.AC3-YYeTs.mkv Codec Information

[spoiler]
General
Unique ID : 190148056579672437057538415046071110647 (0x8F0D2F00A19D35FAAEAFDAD45F2F4BF7)
Complete name : Ai.Nante.Irane.Yo,Natsu.E05.DVDrip.x264.AC3-YYeTs.mkv
Format : Matroska
Format version : Version 2
File size : 349 MiB
Duration : 46mn 15s
Overall bit rate : 1 055 Kbps
Encoded date : UTC 2012-11-22 21:46:42
Writing application : mkvmerge v4.8.0 ('I Got The...') 编译于 May 24 2011 03:12:58
Writing library : libebml v1.2.0 + libmatroska v1.1.0

Video
ID : 1
Format : AVC
Format/Info : Advanced Video Codec
Format profile : High@L4.1
Format settings, CABAC : Yes
Format settings, ReFrames : 5 frames
Codec ID : V_MPEG4/ISO/AVC
Duration : 46mn 15s
Bit rate : 862 Kbps
Width : 704 pixels
Height : 528 pixels
Display aspect ratio : 4:3
Frame rate mode : Constant
Frame rate : 29.970 fps
Color space : YUV
Chroma subsampling : 4:2:0
Bit depth : 8 bits
Scan type : Progressive
Bits/(Pixel*Frame) : 0.077
Stream size : 279 MiB (80%)
Writing library : x264 core 125 r2208 d9d2288
Encoding settings : cabac=1 / ref=5 / deblock=1:-3:-3 / analyse=0x3:0x113 / me=umh / subme=10 / psy=1 / psy_rd=1.00:0.00 / mixed_ref=1 / me_range=48 / chroma_me=1 / trellis=2 / 8x8dct
=1 / cqm=0 / deadzone=21,11 / fast_pskip=0 / chroma_qp_offset=-1 / threads=12 / lookahead_threads=2 / sliced_threads=0 / nr=0 / decimate=1 / interlaced=0 / bluray_compat=0 / constrained_intra=0 / bframes=6
/ b_pyramid=2 / b_adapt=2 / b_bias=0 / direct=3 / weightb=1 / open_gop=0 / weightp=2 / keyint=250 / keyint_min=25 / scenecut=40 / intra_refresh=0 / rc_lookahead=50 / rc=2pass / mbtree=0 / bitrate=862 / rate
tol=2.0 / qcomp=0.70 / qpmin=0 / qpmax=69 / qpstep=4 / cplxblur=20.0 / qblur=0.5 / vbv_maxrate=10000 / vbv_bufsize=10000 / nal_hrd=none / ip_ratio=1.40 / pb_ratio=1.30 / aq=1:1.00
Language : English
Default : Yes
Forced : No

Audio
ID : 2
Format : AC-3
Format/Info : Audio Coding 3
Mode extension : CM (complete main)
Format settings, Endianness : Big
Codec ID : A_AC3
Duration : 46mn 15s
Bit rate mode : Constant
Bit rate : 192 Kbps
Channel(s) : 2 channels
Channel positions : Front: L R
Sampling rate : 48.0 KHz
Bit depth : 16 bits
Compression mode : Lossy
Stream size : 63.5 MiB (18%)
Default : Yes
Forced : No

Checksums
md5: 0f6440a5c2c6fffc763d0623e6a53527
sha1: abc49a9e1589fb98bf6397a66c56c9e264398021
crc32: 3AB68223

Ai.Nante.Irane.Yo,Natsu.E06.DVDrip.x264.AC3-YYeTs.mkv Codec Information

[spoiler]
General
Unique ID : 199048993972771928992498275577594933553 (0x95BF7119195D65DBA3D6C84E1D4C7131)
Complete name : Ai.Nante.Irane.Yo,Natsu.E06.DVDrip.x264.AC3-YYeTs.mkv
Format : Matroska
Format version : Version 2
File size : 349 MiB
Duration : 46mn 4s
Overall bit rate : 1 061 Kbps
Encoded date : UTC 2012-11-22 21:47:25
Writing application : mkvmerge v4.8.0 ('I Got The...') 编译于 May 24 2011 03:12:58
Writing library : libebml v1.2.0 + libmatroska v1.1.0

Video
ID : 1
Format : AVC
Format/Info : Advanced Video Codec
Format profile : High@L4.1
Format settings, CABAC : Yes
Format settings, ReFrames : 5 frames
Codec ID : V_MPEG4/ISO/AVC
Duration : 46mn 4s
Bit rate : 867 Kbps
Width : 704 pixels
Height : 528 pixels
Display aspect ratio : 4:3
Frame rate mode : Constant
Frame rate : 29.970 fps
Color space : YUV
Chroma subsampling : 4:2:0
Bit depth : 8 bits
Scan type : Progressive
Bits/(Pixel*Frame) : 0.078
Stream size : 279 MiB (80%)
Writing library : x264 core 125 r2208 d9d2288
Encoding settings : cabac=1 / ref=5 / deblock=1:-3:-3 / analyse=0x3:0x113 / me=umh / subme=10 / psy=1 / psy_rd=1.00:0.00 / mixed_ref=1 / me_range=48 / chroma_me=1 / trellis=2 / 8x8dct
=1 / cqm=0 / deadzone=21,11 / fast_pskip=0 / chroma_qp_offset=-1 / threads=12 / lookahead_threads=2 / sliced_threads=0 / nr=0 / decimate=1 / interlaced=0 / bluray_compat=0 / constrained_intra=0 / bframes=6
/ b_pyramid=2 / b_adapt=2 / b_bias=0 / direct=3 / weightb=1 / open_gop=0 / weightp=2 / keyint=250 / keyint_min=25 / scenecut=40 / intra_refresh=0 / rc_lookahead=50 / rc=2pass / mbtree=0 / bitrate=867 / rate
tol=2.0 / qcomp=0.70 / qpmin=0 / qpmax=69 / qpstep=4 / cplxblur=20.0 / qblur=0.5 / vbv_maxrate=10000 / vbv_bufsize=10000 / nal_hrd=none / ip_ratio=1.40 / pb_ratio=1.30 / aq=1:1.00
Language : English
Default : Yes
Forced : No

Audio
ID : 2
Format : AC-3
Format/Info : Audio Coding 3
Mode extension : CM (complete main)
Format settings, Endianness : Big
Codec ID : A_AC3
Duration : 46mn 4s
Bit rate mode : Constant
Bit rate : 192 Kbps
Channel(s) : 2 channels
Channel positions : Front: L R
Sampling rate : 48.0 KHz
Bit depth : 16 bits
Compression mode : Lossy
Stream size : 63.3 MiB (18%)
Default : Yes
Forced : No

Checksums
md5: 894733898cc96f770ef7a6da91a1f912
sha1: ffb6b51df68401610f1d0efdbfe6cba69c8510ca
crc32: 36D2E903

Ai.Nante.Irane.Yo,Natsu.E07.DVDrip.x264.AC3-YYeTs.mkv Codec Information

[spoiler]
General
Unique ID : 199242593270856645633642306053496404926 (0x95E4BA47C798F332A380CF07F3207BBE)
Complete name : Ai.Nante.Irane.Yo,Natsu.E07.DVDrip.x264.AC3-YYeTs.mkv
Format : Matroska
Format version : Version 2
File size : 350 MiB
Duration : 46mn 22s
Overall bit rate : 1 054 Kbps
Encoded date : UTC 2012-11-22 21:50:11
Writing application : mkvmerge v4.8.0 ('I Got The...') 编译于 May 24 2011 03:12:58
Writing library : libebml v1.2.0 + libmatroska v1.1.0

Video
ID : 1
Format : AVC
Format/Info : Advanced Video Codec
Format profile : High@L4.1
Format settings, CABAC : Yes
Format settings, ReFrames : 5 frames
Codec ID : V_MPEG4/ISO/AVC
Duration : 46mn 22s
Bit rate : 860 Kbps
Width : 704 pixels
Height : 528 pixels
Display aspect ratio : 4:3
Frame rate mode : Constant
Frame rate : 29.970 fps
Color space : YUV
Chroma subsampling : 4:2:0
Bit depth : 8 bits
Scan type : Progressive
Bits/(Pixel*Frame) : 0.077
Stream size : 279 MiB (80%)
Writing library : x264 core 125 r2208 d9d2288
Encoding settings : cabac=1 / ref=5 / deblock=1:-3:-3 / analyse=0x3:0x113 / me=umh / subme=10 / psy=1 / psy_rd=1.00:0.00 / mixed_ref=1 / me_range=48 / chroma_me=1 / trellis=2 / 8x8dct
=1 / cqm=0 / deadzone=21,11 / fast_pskip=0 / chroma_qp_offset=-1 / threads=12 / lookahead_threads=2 / sliced_threads=0 / nr=0 / decimate=1 / interlaced=0 / bluray_compat=0 / constrained_intra=0 / bframes=6
/ b_pyramid=2 / b_adapt=2 / b_bias=0 / direct=3 / weightb=1 / open_gop=0 / weightp=2 / keyint=250 / keyint_min=25 / scenecut=40 / intra_refresh=0 / rc_lookahead=50 / rc=2pass / mbtree=0 / bitrate=860 / rate
tol=2.0 / qcomp=0.70 / qpmin=0 / qpmax=69 / qpstep=4 / cplxblur=20.0 / qblur=0.5 / vbv_maxrate=10000 / vbv_bufsize=10000 / nal_hrd=none / ip_ratio=1.40 / pb_ratio=1.30 / aq=1:1.00
Language : English
Default : Yes
Forced : No

Audio
ID : 2
Format : AC-3
Format/Info : Audio Coding 3
Mode extension : CM (complete main)
Format settings, Endianness : Big
Codec ID : A_AC3
Duration : 46mn 22s
Bit rate mode : Constant
Bit rate : 192 Kbps
Channel(s) : 2 channels
Channel positions : Front: L R
Sampling rate : 48.0 KHz
Bit depth : 16 bits
Compression mode : Lossy
Stream size : 63.7 MiB (18%)
Default : Yes
Forced : No

Checksums
md5: 010ce74243bf0e6a5174b6f0b2efc0da
sha1: 30d743383731570ce84fcd442c61626753442470
crc32: A1DD8403

Ai.Nante.Irane.Yo,Natsu.E08.DVDrip.x264.AC3-YYeTs.mkv Codec Information

[spoiler]
General
Unique ID : 238672163434710922560325342369444555849 (0xB38E962E5EE083BAAFC5765FD6206C49)
Complete name : Ai.Nante.Irane.Yo,Natsu.E08.DVDrip.x264.AC3-YYeTs.mkv
Format : Matroska
Format version : Version 2
File size : 349 MiB
Duration : 45mn 19s
Overall bit rate : 1 077 Kbps
Encoded date : UTC 2012-11-22 21:50:48
Writing application : mkvmerge v4.8.0 ('I Got The...') 编译于 May 24 2011 03:12:58
Writing library : libebml v1.2.0 + libmatroska v1.1.0

Video
ID : 1
Format : AVC
Format/Info : Advanced Video Codec
Format profile : High@L4.1
Format settings, CABAC : Yes
Format settings, ReFrames : 5 frames
Codec ID : V_MPEG4/ISO/AVC
Duration : 45mn 19s
Bit rate : 884 Kbps
Width : 704 pixels
Height : 528 pixels
Display aspect ratio : 4:3
Frame rate mode : Constant
Frame rate : 29.970 fps
Color space : YUV
Chroma subsampling : 4:2:0
Bit depth : 8 bits
Scan type : Progressive
Bits/(Pixel*Frame) : 0.079
Stream size : 280 MiB (80%)
Writing library : x264 core 125 r2208 d9d2288
Encoding settings : cabac=1 / ref=5 / deblock=1:-3:-3 / analyse=0x3:0x113 / me=umh / subme=10 / psy=1 / psy_rd=1.00:0.00 / mixed_ref=1 / me_range=48 / chroma_me=1 / trellis=2 / 8x8dct
=1 / cqm=0 / deadzone=21,11 / fast_pskip=0 / chroma_qp_offset=-1 / threads=12 / lookahead_threads=2 / sliced_threads=0 / nr=0 / decimate=1 / interlaced=0 / bluray_compat=0 / constrained_intra=0 / bframes=6
/ b_pyramid=2 / b_adapt=2 / b_bias=0 / direct=3 / weightb=1 / open_gop=0 / weightp=2 / keyint=250 / keyint_min=25 / scenecut=40 / intra_refresh=0 / rc_lookahead=50 / rc=2pass / mbtree=0 / bitrate=884 / rate
tol=2.0 / qcomp=0.70 / qpmin=0 / qpmax=69 / qpstep=4 / cplxblur=20.0 / qblur=0.5 / vbv_maxrate=10000 / vbv_bufsize=10000 / nal_hrd=none / ip_ratio=1.40 / pb_ratio=1.30 / aq=1:1.00
Language : English
Default : Yes
Forced : No

Audio
ID : 2
Format : AC-3
Format/Info : Audio Coding 3
Mode extension : CM (complete main)
Format settings, Endianness : Big
Codec ID : A_AC3
Duration : 45mn 19s
Bit rate mode : Constant
Bit rate : 192 Kbps
Channel(s) : 2 channels
Channel positions : Front: L R
Sampling rate : 48.0 KHz
Bit depth : 16 bits
Compression mode : Lossy
Stream size : 62.3 MiB (18%)
Default : Yes
Forced : No

Checksums
md5: dacc38956e9ae82fbc7fbbed8f17e8a3
sha1: 0ba29cf27ffa7fc983959459fe4ace6f574a9aff
crc32: 7EB1FD30

Ai.Nante.Irane.Yo,Natsu.E09.DVDrip.x264.AC3-YYeTs.mkv Codec Information

[spoiler]
General
Unique ID : 184024629181717814230361165658068889275 (0x8A71DAB8F2B11D13B293DC6E1BDC2EBB)
Complete name : Ai.Nante.Irane.Yo,Natsu.E09.DVDrip.x264.AC3-YYeTs.mkv
Format : Matroska
Format version : Version 2
File size : 349 MiB
Duration : 46mn 23s
Overall bit rate : 1 052 Kbps
Encoded date : UTC 2012-11-22 21:52:03
Writing application : mkvmerge v4.8.0 ('I Got The...') 编译于 May 24 2011 03:12:58
Writing library : libebml v1.2.0 + libmatroska v1.1.0

Video
ID : 1
Format : AVC
Format/Info : Advanced Video Codec
Format profile : High@L4.1
Format settings, CABAC : Yes
Format settings, ReFrames : 5 frames
Codec ID : V_MPEG4/ISO/AVC
Duration : 46mn 23s
Bit rate : 859 Kbps
Width : 704 pixels
Height : 528 pixels
Display aspect ratio : 4:3
Frame rate mode : Constant
Frame rate : 29.970 fps
Color space : YUV
Chroma subsampling : 4:2:0
Bit depth : 8 bits
Scan type : Progressive
Bits/(Pixel*Frame) : 0.077
Stream size : 279 MiB (80%)
Writing library : x264 core 125 r2208 d9d2288
Encoding settings : cabac=1 / ref=5 / deblock=1:-3:-3 / analyse=0x3:0x113 / me=umh / subme=10 / psy=1 / psy_rd=1.00:0.00 / mixed_ref=1 / me_range=48 / chroma_me=1 / trellis=2 / 8x8dct
=1 / cqm=0 / deadzone=21,11 / fast_pskip=0 / chroma_qp_offset=-1 / threads=12 / lookahead_threads=2 / sliced_threads=0 / nr=0 / decimate=1 / interlaced=0 / bluray_compat=0 / constrained_intra=0 / bframes=6
/ b_pyramid=2 / b_adapt=2 / b_bias=0 / direct=3 / weightb=1 / open_gop=0 / weightp=2 / keyint=250 / keyint_min=25 / scenecut=40 / intra_refresh=0 / rc_lookahead=50 / rc=2pass / mbtree=0 / bitrate=859 / rate
tol=2.0 / qcomp=0.70 / qpmin=0 / qpmax=69 / qpstep=4 / cplxblur=20.0 / qblur=0.5 / vbv_maxrate=10000 / vbv_bufsize=10000 / nal_hrd=none / ip_ratio=1.40 / pb_ratio=1.30 / aq=1:1.00
Language : English
Default : Yes
Forced : No

Audio
ID : 2
Format : AC-3
Format/Info : Audio Coding 3
Mode extension : CM (complete main)
Format settings, Endianness : Big
Codec ID : A_AC3
Duration : 46mn 23s
Bit rate mode : Constant
Bit rate : 192 Kbps
Channel(s) : 2 channels
Channel positions : Front: L R
Sampling rate : 48.0 KHz
Bit depth : 16 bits
Compression mode : Lossy
Stream size : 63.7 MiB (18%)
Default : Yes
Forced : No

Checksums
md5: bc905b186549c86c9741100a8122db6a
sha1: 9aa4aecfccb45fdb2b5f0df320265985eed96038
crc32: 7533AE77

Ai.Nante.Irane.Yo,Natsu.E10end.DVDrip.x264.AC3-YYeTs.mkv Codec Information

[spoiler]
General
Unique ID : 246649334938945912804864711386959381071 (0xB98EEF1A1D122BC691FA55427E03024F)
Complete name : Ai.Nante.Irane.Yo,Natsu.E10end.DVDrip.x264.AC3-YYeTs.mkv
Format : Matroska
Format version : Version 2
File size : 350 MiB
Duration : 45mn 39s
Overall bit rate : 1 072 Kbps
Encoded date : UTC 2012-11-22 21:52:44
Writing application : mkvmerge v4.8.0 ('I Got The...') 编译于 May 24 2011 03:12:58
Writing library : libebml v1.2.0 + libmatroska v1.1.0

Video
ID : 1
Format : AVC
Format/Info : Advanced Video Codec
Format profile : High@L4.1
Format settings, CABAC : Yes
Format settings, ReFrames : 5 frames
Codec ID : V_MPEG4/ISO/AVC
Duration : 45mn 39s
Bit rate : 876 Kbps
Width : 704 pixels
Height : 528 pixels
Display aspect ratio : 4:3
Frame rate mode : Constant
Frame rate : 29.970 fps
Color space : YUV
Chroma subsampling : 4:2:0
Bit depth : 8 bits
Scan type : Progressive
Bits/(Pixel*Frame) : 0.079
Stream size : 280 MiB (80%)
Writing library : x264 core 125 r2208 d9d2288
Encoding settings : cabac=1 / ref=5 / deblock=1:-3:-3 / analyse=0x3:0x113 / me=umh / subme=10 / psy=1 / psy_rd=1.00:0.00 / mixed_ref=1 / me_range=48 / chroma_me=1 / trellis=2 / 8x8dct
=1 / cqm=0 / deadzone=21,11 / fast_pskip=0 / chroma_qp_offset=-1 / threads=12 / lookahead_threads=2 / sliced_threads=0 / nr=0 / decimate=1 / interlaced=0 / bluray_compat=0 / constrained_intra=0 / bframes=6
/ b_pyramid=2 / b_adapt=2 / b_bias=0 / direct=3 / weightb=1 / open_gop=0 / weightp=2 / keyint=250 / keyint_min=25 / scenecut=40 / intra_refresh=0 / rc_lookahead=50 / rc=2pass / mbtree=0 / bitrate=876 / rate
tol=2.0 / qcomp=0.70 / qpmin=0 / qpmax=69 / qpstep=4 / cplxblur=20.0 / qblur=0.5 / vbv_maxrate=10000 / vbv_bufsize=10000 / nal_hrd=none / ip_ratio=1.40 / pb_ratio=1.30 / aq=1:1.00
Language : English
Default : Yes
Forced : No

Audio
ID : 2
Format : AC-3
Format/Info : Audio Coding 3
Mode extension : CM (complete main)
Format settings, Endianness : Big
Codec ID : A_AC3
Duration : 45mn 39s
Bit rate mode : Constant
Bit rate : 192 Kbps
Channel(s) : 2 channels
Channel positions : Front: L R
Sampling rate : 48.0 KHz
Bit depth : 16 bits
Compression mode : Lossy
Stream size : 62.7 MiB (18%)
Default : Yes
Forced : No

Checksums
md5: 251a50481728526a95950791b569ace5
sha1: 38556ba441e3d7932b87b11c4eb4114a1e77f472
crc32: B906E465

[/spoiler]


Return to “Archived Comments”

Who is online

Users browsing this forum: Google [Bot] and 5 guests